#TITLE:Boo;
#SUBTITLE:;
#ARTIST:AEROjet;
#TITLETRANSLIT:;
#SUBTITLETRANSLIT:;
#ARTISTTRANSLIT:;
#CREDIT:customstuff;
#BANNER:Boo!.jpg;
#BACKGROUND:;
#LYRICSPATH:;
#CDTITLE:;
#MUSIC:AEROjet - Boo.mp3;
#OFFSET:1.120;
#SAMPLESTART:100.000;
#SAMPLELENGTH:11.880;
#SELECTABLE:YES;
#BPMS:0.000=200.000;
#STOPS:;
#BGCHANGES:;
// cache tags:
#FIRSTBEAT:35.500;
#LASTBEAT:875.000;
#SONGFILENAME:Songs/nhac/AEROjet - Boo/AEROjet - Boo.sm;
#HASMUSIC:1;
#HASBANNER:1;
#MUSICLENGTH:268.956;
// end cache tags

//---------------dance-single - ----------------
#NOTES:
     dance-single:
     :
     Hard:
     1:
     1.000,1.000,1.000,0.000,1.000,2061.000,649.000,0.000,0.000,0.000:
0000
0000
0000
0000
,
0000
0000
0000
0000
,
0000
0000
0000
0000
,
0000
0000
0000
0000
,
0000
0000
0000
0000
,
0000
0000
0000
0000
,
0000
0000
0000
0000
,
0000
0000
0000
0000
,
0000
0000
0000
0000
0000
0000
0000
1000
,
0000
0000
0000
0100
0000
0000
0000
1000
,
0000
0000
0000
0000
0000
0000
0000
0000
0000
0000
0000
0000
0000
0000
0000
0001
,
0000
0000
0000
0000
0000
0000
0000
0010
,
0000
0000
0000
0000
0000
0000
0000
0100
,
0000
0000
0000
1000
0000
0000
0000
0010
,
0000
0000
0000
0000
0000
0000
0000
0100
,
0000
0000
0000
0000
0000
0000
0000
1000
,
0000
0000
0000
0000
,
0000
0000
0000
0001
0000
0000
0000
1000
,
0000
0000
0000
0000
0000
0000
0100
0010
0001
0010
0100
1000
0100
0010
0001
0010
,
0100
1000
0100
0010
0001
1000
0100
0010
0001
0010
0100
1000
0001
0100
0010
1000
,
0100
0010
0001
1000
0010
0100
0001
1000
0100
0010
0100
1000
0001
0010
0100
1000
,
0001
0010
0100
0010
0001
1000
0100
0010
0001
0000
0000
0000
0000
0000
0000
0000
,
0000
0000
0000
0000
,
0000
0000
0000
0000
,
0000
0000
0000
0000
,
0000
0000
0000
0000
0001
0000
0000
0000
0000
0000
0000
0000
0011
1100
0011
1100
,
0011
1100
0011
1100
0011
1100
0011
1100
0011
1100
0000
0000
0000
0000
0000
0000
,
1001
0000
0110
0001
0010
0100
1000
0100
0010
0001
1000
0010
0100
0001
0010
0100
,
0010
0001
1100
0000
1010
0000
0000
0000
0000
0000
0000
0000
0000
0011
0000
0100
,
1010
0000
0000
0000
0100
0000
0000
0000
0011
0000
1100
0000
0011
0100
1000
0000
,
0000
0000
0000
0101
1000
0000
0000
0000
0000
0000
0000
0001
0000
0000
0000
1100
,
0000
0000
0110
1001
0110
1001
0110
1001
0110
1000
0001
1000
0001
1000
0000
0000
,
0000
0011
0000
0100
,
0011
1000
0010
1000
0010
1000
0010
1000
0010
1000
0001
0100
0001
0100
0001
0100
,
0001
0100
0001
0100
0001
0000
0000
0000
1010
0101
0000
1010
0101
0000
1010
0101
,
0000
1010
0101
0000
0011
1100
0000
0011
1100
0000
0011
1100
0000
0011
1100
0000
,
0001
0000
1000
0000
0011
0000
0000
0000
0100
0000
0000
1000
0000
0000
0100
0000
,
0000
0010
0000
0000
0001
0000
0000
1000
0000
0000
0000
0001
0000
0000
0000
0000
,
0000
0000
0000
0000
,
1100
0000
1000
0000
1000
0000
1000
0010
,
0000
0110
0000
0000
0000
0100
0000
0000
0000
0100
0000
0000
0000
0100
0000
0000
,
0000
0100
0000
0000
0000
0100
0000
0000
0000
0100
0000
0000
0000
0100
0000
0000
,
0000
0000
0000
0000
,
0000
0000
0000
0000
,
1100
0000
0000
0000
0110
0000
0000
0000
0011
0000
0000
0000
1010
0000
0000
1100
,
0000
0000
0110
0000
0000
1010
0000
0000
0101
0000
1100
0011
1100
0011
1100
0011
,
1000
0100
0010
0001
0100
0010
1000
0001
0100
0010
1000
0100
0010
0001
1000
0100
,
0010
0100
1000
0001
0010
0100
0010
0001
0100
0010
0100
0001
0100
0010
1000
0010
,
0100
0010
1000
0100
0010
0001
1000
0010
1000
0001
0100
0001
1000
0010
1000
0100
,
0010
0100
1000
0001
0010
0100
1000
0001
0100
0010
1000
0100
0010
0001
0010
0100
,
0010
0001
0010
0100
1000
0010
0100
0001
0010
0100
1000
0010
0100
0001
0010
0100
,
1000
0100
0010
0001
1000
0100
0010
0100
1000
0001
0010
0001
1000
0100
0010
0001
,
0010
0100
0010
0001
0010
0100
1000
0100
0010
0100
1000
0010
0100
0010
1000
0100
,
0010
0001
0100
0010
0100
0001
0010
0100
0010
0001
1000
0010
0100
0001
0010
0100
,
1000
0100
0010
0001
0010
0100
1000
0100
0010
0100
1000
0010
0100
0010
1000
0100
,
0010
0001
0100
0001
1000
0010
1000
0010
0100
0001
0010
0100
1000
0010
1000
0100
,
1000
0001
1000
0010
1000
0100
0010
0001
0100
0010
1000
0100
0010
0001
0100
0001
,
0010
0100
1000
0100
0010
0001
0010
0100
0010
0100
1000
0100
0010
0100
0010
0001
,
1000
0010
0100
0001
0010
0100
1000
0001
0010
0100
1000
0100
0010
0001
0100
0010
,
1000
0001
0010
0100
1000
0010
1000
0100
0010
0001
0100
0001
1000
0001
0010
0100
,
1000
0010
0100
0010
1000
0100
0010
0001
0100
0010
0100
0001
0010
0100
1000
0010
,
0100
0000
0000
0000
1100
0000
0000
0000
0011
1100
0011
1100
0011
1100
0011
1100
,
0011
0110
1010
0101
1100
0011
0110
1100
,
0011
0000
0100
0000
0011
0000
0000
0000
0001
0010
0100
0000
1010
0000
0000
0000
,
0010
0010
1010
0100
1010
0000
1000
0100
,
0001
0010
0100
1000
0001
0010
0100
1000
0001
0100
0010
1000
0100
0010
0001
1000
,
0001
1000
0001
0010
0100
0000
0000
0000
1100
0000
1100
0000
1100
0000
1100
0000
,
0110
0000
0000
1100
0000
0000
1001
0000
0000
1100
0000
0000
1001
0000
0000
0000
,
0011
0000
0000
0000
1100
0000
0000
0000
0011
0000
0000
0000
1100
0000
0000
0000
0011
0000
0000
0000
1100
0000
0000
0000
0011
0000
0000
0000
0000
0000
0000
0000
0000
0000
0000
0000
0101
0000
0000
0000
0000
0000
0000
0000
0000
1100
0000
0000
,
0000
0000
1010
0000
0000
0110
0000
0000
1010
0000
0000
0000
0000
0000
0000
0000
,
0001
0010
0100
1000
0100
0010
0001
0010
0100
1000
0100
0010
0001
0100
0010
1000
,
0010
0100
0001
0100
0010
1000
0010
0100
0001
0100
0010
1000
0100
0010
0001
0010
,
0100
1000
0010
0100
0001
0010
0100
1000
0001
0100
0010
1000
0001
1000
0100
0010
,
0001
1000
0001
1000
0001
1000
0001
1000
0001
1000
0001
1000
0001
1000
0001
1000
,
0001
0010
0100
1000
0010
1000
0100
0010
0001
0100
0001
0010
0100
1000
0001
1000
,
0100
0010
0001
1000
0001
0010
0100
1000
0010
0100
0001
1000
0100
0010
0100
1000
,
0011
0011
1100
1100
0110
0110
0011
0011
,
1001
0001
0010
0100
1000
0100
0011
0000
,
1010
0000
0000
0000
0100
0000
0010
0000
0001
0010
0100
1000
0100
0010
0001
0010
,
0100
1000
0100
0010
0001
1000
0001
1000
0100
0010
0001
0010
0100
1000
0010
0100
,
0001
1000
0100
0010
0100
1000
0001
0010
0100
0010
0001
0010
0100
0010
0001
1000
,
0001
0100
0010
1000
0100
0010
0001
0010
0100
0000
0000
0000
0000
0000
0000
0000
,
0001
0010
0100
1000
0100
0010
0100
1000
0001
0010
0100
0010
0001
0100
0010
0100
,
0001
0010
0100
0010
0001
0010
0100
1000
0010
0100
0001
0010
0100
1000
0100
0010
,
0001
1000
0100
0010
0100
1000
0001
0010
0100
1000
0010
1000
0100
0010
0001
0100
,
0001
0000
0000
0000
0000
0000
0011
0000
0000
0001
0000
0000
0101
0000
0000
0000
0000
0000
0001
0010
0100
1000
0000
0000
,
0001
0010
0100
1000
0010
1000
0100
0010
0001
1000
0010
0100
0010
1000
0100
0010
,
0001
0010
0100
0010
0001
1000
0100
0010
0001
0010
0100
1000
0001
0100
0010
1000
,
0100
0100
0100
0100
0100
0100
0100
0100
,
0110
0000
0000
0000
,
0001
0010
0100
0010
0001
1000
0100
0010
0100
1000
0001
0010
0100
0010
0001
0100
,
0010
0100
0001
1000
0100
0010
0100
1000
0010
0100
0010
1000
0100
0010
0001
0100
,
0010
0010
0010
0010
0010
0010
0010
0010
,
1010
0000
0000
0000
0000
0000
0000
0000
0000
0011
0000
0000
0000
0000
0000
0000
,
1001
0000
0000
0000
0001
0010
0100
0010
0001
1000
0010
0100
0010
1000
0100
0010
,
0001
1000
0010
0100
0001
1000
0100
1000
0001
0010
0001
1000
0010
1000
0001
0100
,
0001
0010
0100
0010
0001
1000
0100
0010
0100
1000
0010
0100
0010
1000
0100
0010
,
0001
0000
0000
0000
0000
0000
0001
0010
0100
1000
0001
0010
0100
1000
0000
0000
0000
0000
0000
0000
0000
0000
0000
0000
,
1000
0000
0010
0000
0100
0000
0001
0000
1000
0000
0010
0000
0100
0000
0001
0000
0000
0000
0000
0000
0000
0000
0000
0000
0010
0000
0000
0000
0000
0000
0000
0000
0000
0000
0000
0000
0001
0000
0000
0100
0000
0000
0010
0000
0000
1000
0000
0000
,
0100
0010
0001
0100
0010
1000
0001
0010
0100
1000
0001
0010
0100
1000
0100
0010
,
0001
1000
0100
0010
0001
0100
0001
0010
0100
1000
0100
0010
0001
1000
0100
0000
,
0110
0110
0110
0110
0011
0101
0110
1010
,
1001
0010
0100
1000
0100
0010
0001
1000
0010
0100
0001
0010
0100
1000
0100
0010
,
0001
0010
0100
1000
0010
1000
0100
0010
0001
0100
0001
1000
0001
0100
0010
1000
,
0100
1000
0010
0100
0001
0010
0001
0100
0010
1000
0100
0010
0001
1000
0010
0100
,
0001
0010
0100
1000
0010
1000
0100
0010
0001
0100
0001
0010
0100
1000
0100
0010
,
0100
1000
0010
0100
0001
0010
0100
1000
0010
0100
0010
1000
0100
0010
0001
1000
,
0100
0010
0001
0010
0100
1000
0010
1000
0100
0010
0001
0010
0100
1000
0100
0010
,
0001
0010
0100
1000
0100
1000
0001
0010
0001
1000
0010
1000
0001
0100
0001
0010
,
0001
0010
0100
1000
0010
0100
0001
0010
0100
1000
0010
1000
0100
0010
0001
1000
,
0010
0100
0010
1000
0100
0010
0100
1000
0010
0100
0001
0010
0100
0010
0001
0100
,
0001
0010
0100
1000
0001
0010
0100
1000
0001
0100
0010
1000
0001
0100
0010
1000
,
0100
0010
0001
1000
0100
0010
0001
1000
0010
0100
0001
1000
0010
0100
0001
1000
,
0001
0010
0001
0010
0100
1000
0001
0100
0001
1000
0010
1000
0001
1000
0001
0100
,
0010
1000
0001
1000
0010
0100
0001
1000
0100
0010
0001
1000
0100
0010
0100
1000
,
0001
0010
0100
1000
0010
1000
0100
0010
0001
1000
0010
0100
0010
1000
0100
0010
,
0001
0100
0001
0100
0001
0100
0001
0100
0001
0100
0001
0100
0001
0100
0001
0100
,
1001
0000
0000
0000
0000
0000
0000
0000
0001
1000
0001
1000
0001
1000
0001
1000
,
0101
0100
0110
0010
1010
1000
1100
0100
,
0110
0010
0011
0001
1001
1000
1010
0110
,
0101
0001
0011
0010
0110
0100
0101
0100
,
1010
1000
1100
0100
0101
0101
1100
1100
,
1010
0010
0011
0010
0110
0100
1010
0010
,
0110
0100
1010
0010
0011
0010
0110
0100
,
1100
1000
1100
0100
0110
0010
0011
0001
,
0101
0000
0101
0000
1010
0000
1010
0000
0011
1100
0011
1100
0011
1100
0011
1100
,
0011
0010
0110
0100
1100
1000
1010
0010
,
0110
0100
0101
0001
1001
1000
1100
0110
,
0011
0001
1001
1000
1100
0100
0110
0010
,
1010
1000
1100
0100
0101
0110
1010
1100
,
1001
0001
0011
0010
1010
1000
1001
0001
,
0101
0100
0110
0010
1010
1000
1100
0010
,
0001
0100
0001
0100
0010
1000
0010
1000
0001
1000
0001
1000
0100
1000
0100
1000
,
0001
0000
0000
0010
0000
0000
0001
0000
0000
0010
0000
0000
0100
0000
0000
0010
0000
0000
0100
0000
0000
1000
0000
0000
0001
0000
0000
0010
0000
0000
0100
0000
0000
1000
0000
0000
0001
0000
0010
0000
0100
0000
1000
0000
0001
0000
0010
0000
,
1100
0100
0110
0010
0011
0001
0101
0100
,
0110
0010
1010
1000
1100
0100
0110
0110
,
1100
1000
1010
0010
0011
0010
1010
1000
,
1001
1000
1010
0010
1010
1010
1001
1001
,
1100
0100
0110
0010
0011
0001
0101
0100
,
0110
0100
0101
0001
0011
0010
0110
0100
,
1100
1000
1010
1000
1100
0100
0110
0100
,
1100
0000
0110
0000
0011
0000
1001
0000
1010
0101
1010
0101
1010
0101
1010
0101
,
1010
1000
1100
0100
0110
0010
0011
0001
,
1001
1000
1010
0010
0110
0010
1010
1001
,
1100
0100
0110
0010
0011
0001
1001
1000
,
1010
1000
1100
0100
0110
0110
1001
1001
,
1100
0010
1100
0001
1100
0010
1100
0001
,
0101
1000
0101
0010
0101
1000
0101
1000
,
0001
0100
0001
0100
0001
0100
0001
0010
0100
0010
0001
0100
0010
0000
0000
0000
,
1100
0100
0110
0010
0011
0001
1001
1010
,
0110
0000
1000
0101
0000
0000
1010
0000
0001
1100
0000
0000
0011
0000
0011
0000
,
1001
0000
0010
1100
0000
0000
0011
0000
1000
0110
0000
0000
1010
0000
1100
0000
,
0110
0000
1000
0011
0000
0000
0101
0000
0100
1010
0000
0000
1100
0000
0011
0000
,
1001
0000
0001
0110
0000
0000
1100
0000
0110
0000
0110
0000
0011
0000
0011
0000
,
1001
0000
0010
1100
0000
0000
0011
0000
1000
0101
0000
0000
1010
0000
1010
0000
,
0101
0000
0100
0011
0000
0000
0110
0000
0100
1010
0000
0000
1001
0000
1001
0000
,
0110
0000
0001
1010
0000
0000
1100
0000
1000
0110
0000
0000
0011
0000
0011
0000
,
1001
0000
1100
0000
0110
0000
0011
0000
1100
0011
1100
0011
1100
0011
1100
0011
,
1100
0000
0010
1001
0000
0000
1010
0000
0010
0101
0000
0000
1100
0000
1100
0000
,
0101
0000
1000
0011
0000
0000
1100
0000
0001
0110
0000
0000
1001
0000
1001
0000
,
0011
0000
0001
1100
0000
0000
0101
0000
0100
1010
0000
0000
1010
0000
1010
0000
,
1001
0000
0100
0011
0000
0000
0110
0000
1100
0000
1010
0000
0110
0000
0101
0000
,
0011
0000
1000
0110
0000
0000
0101
0000
0001
1010
0000
0000
0110
0000
0110
0000
,
1001
0000
0010
1100
0000
0000
0011
0000
1000
0101
0000
0000
1010
0000
1010
0000
,
1100
0100
0000
0100
0000
0100
0000
0100
,
1100
0000
0000
0000
0000
0000
0001
0010
0100
1000
0010
0100
0001
0010
0100
1000
,
0110
0000
0010
0101
0000
0000
0011
0000
1000
0110
0000
0000
1100
0000
1100
0000
,
1010
0000
0001
0110
0000
0000
1001
0000
0010
1100
0000
0000
0101
0000
0101
0000
,
1100
0000
0010
0101
0000
0000
0011
0000
1000
0110
0000
0000
1010
0000
1010
0000
,
1001
0000
0010
1100
0000
0000
0110
0000
0101
0000
0101
0000
1010
0000
1010
0000
,
1001
0000
0100
0011
0000
0000
1100
0000
0010
0101
0000
0000
1010
0000
1010
0000
,
1100
0000
0100
0011
0000
0000
0110
0000
1000
0011
0000
0000
0101
0000
0101
0000
,
1010
0000
0010
1100
0000
0000
1010
0000
0001
1100
0000
0000
0101
0000
0101
0000
,
1010
0000
0101
0000
1010
0000
0101
0000
1100
0011
1100
0011
1100
0011
1100
0011
,
1100
0000
0100
0011
0000
0000
0110
0000
0001
1010
0000
0000
0101
0000
0101
0000
,
0011
0000
1000
0110
0000
0000
1100
0000
0010
0101
0000
0000
0110
0000
0110
0000
,
1010
0000
0001
1100
0000
0000
0110
0000
1000
0011
0000
0000
0101
0000
0101
0000
,
1100
0000
0100
0011
0000
0000
1100
0000
0101
0000
0101
0000
1010
0000
1010
0000
,
1100
0000
0010
1001
0000
0000
1010
0000
1000
0101
0000
0000
0011
0000
0011
0000
,
1010
0000
0001
0110
0000
0000
0101
0000
0010
1100
0000
0000
0110
0000
0011
0000
,
0101
0000
0100
1010
0000
0000
0101
0000
1000
0110
0000
0000
1100
0000
0110
0000
,
0011
0000
0110
0000
1100
0000
1010
0000
0101
1010
0101
1010
0101
1010
0101
1010
,
0101
0010
1100
0010
0001
0010
1100
0110
,
0010
0100
1001
0100
0010
0001
1010
0110
,
0011
0001
1001
0010
0110
1000
0110
0001
,
0010
0100
1100
0100
0011
0011
1100
1100
,
1001
0010
1100
0010
0100
0001
0110
1100
,
0100
0000
0011
0000
0101
0000
0010
0000
0100
0000
1000
0000
0110
1000
0001
0100
,
0010
0100
1010
0100
0001
0010
1100
0011
,
0110
0000
0110
0000
0011
0000
0011
0000
1001
0110
1001
0110
1001
0110
1001
0110
,
1001
0010
1100
0010
0001
0100
0101
0110
,
0100
0110
1001
0100
0010
0001
0101
0110
,
1100
0010
1001
0100
0011
1100
0101
0011
,
0100
0010
0101
0010
1001
1001
0110
0110
,
1100
0010
0101
0010
0100
1000
0110
0110
,
0001
0000
0010
0000
1100
0000
0010
0000
0100
0000
0001
0000
0011
0100
0010
1000
,
0100
0010
0101
0010
0100
1000
1010
1000
,
1100
0000
1100
0000
0110
0000
0110
0000
0011
1100
0011
1100
0011
1100
0011
1100
,
0011
0010
1100
0110
0001
0010
1100
0011
,
0001
0100
0101
0010
0001
0010
0101
0110
,
1100
1000
0110
0100
0011
0110
1100
0100
,
0010
0001
1100
0100
0011
0011
0110
0110
,
1100
0100
0011
0010
0101
1000
0101
0110
,
1000
0110
1001
0010
0100
1000
1010
1100
,
0110
0001
0110
1000
0110
0101
0101
0010
,
1100
0000
1100
0000
0110
0000
0110
0000
0011
1100
0011
1100
0011
1100
0011
1100
,
0011
0100
1010
0100
1010
0001
1010
0110
,
0010
0011
0110
0100
1000
0001
1100
1100
,
0110
0010
0101
0010
0110
1001
1010
1000
,
0100
0010
0011
0100
1010
1010
1100
1100
,
1001
0100
0011
1000
0101
1000
0011
0110
,
1000
0000
0101
0000
0011
0000
1100
0000
1000
0000
1010
0000
0101
1000
0010
0001
,
0100
1000
0101
0010
0110
1000
0110
0000
,
0001
0010
0100
1000
0001
0100
0010
1000
0011
1100
0011
1100
0011
1100
0011
1100
,
0011
0100
1000
0100
0010
0001
1000
0010
0100
0001
0010
0100
0010
0001
1000
0100
,
0010
0001
1000
0010
0100
0010
1000
0100
0010
0100
1000
0010
0100
0010
1000
0100
,
0010
0001
1000
0100
0010
0001
1000
0010
0100
0010
1000
0100
0010
0001
1000
0100
,
0010
0001
1000
0010
0100
0001
0000
0000
0000
0000
0000
0000
1001
0000
0000
0000
,
0000
0000
0000
0100
;
